Warning! Use a VPN When Downloading Torrents!
Your IP Address is . Location is
Your Internet Provider is tracking your torrent activity! Hide your IP ADDRESS with a VPN!
We strongly recommend using Trust.Zone VPN to anonymize your torrenting. It's FREE!
Get VPN Now for FREE!

The Avengers 2012 480p BRRip x264 300MB EvolutiOn Silver RG

To start this download, you need a free bitTorrent client like µTorrent.


Informations

Bookmark this torrent.

Seeds99
Peers31
Size890.1 MB
Age5 years
DateFebruary 22nd 2018 anonymous
Comments0
Categorymovies
Hashce581c9582e54c2755294cc13ee2c80da178210f
ReportedFake (0Password (0Bad quality (0Virus (0Offensive (0Spam (0Real Torrent (0
Bookmark

Description

The Avengers 2012 480p BRRip x264 300MB EvolutiOn Silver RG


Format : AVI

Format/Info : Audio Video Interleave

File size : 850 MB

Duration : 2h 7mn

Overall bit rate : 874 Kbps

Writing application : VirtualDubMod 1.5.10.2 (build 2542/release)

Writing library : VirtualDubMod build 2542/release



Video:



ID : 0

Format : MPEG-4 Visual

Format profile : Advanced Simple@L5

Format settings, BVOP : 1

Format settings, QPel : No

Format settings, GMC : No warppoints

Format settings, Matrix : Default (H.263)

Muxing mode : Packed bitstream

Codec ID : XVID

Codec ID/Hint : XviD

Duration : 2h 7mn

Bit rate : 737 Kbps

Width : 704 pixels

Height : 296 pixels

Display aspect ratio : 2.40:1

Frame rate : 23.976 fps

Color space : YUV

Chroma subsampling : 4:2:0

Bit depth : 8 bits

Scan type : Progressive

Compression mode : Lossy

Bits/(Pixel*Frame) : 0.147

Stream size : 700 MiB (84%)

Writing library : XviD 62



Audio:



ID : 1

Format : MPEG Audio

Format version : Version 1

Format profile : Layer 3

Mode : Joint stereo

Mode extension : MS Stereo

Codec ID : 55

Codec ID/Hint : MP3

Duration : 2h 7mn

Bit rate mode : Constant

Bit rate : 128 Kbps

Channel(s) : 2 channels

Sampling rate : 44.1 KHz

Compression mode : Lossy

Stream size : 82.6 MiB (15%)

Alignment : Split accross interleaves

Interleave, duration : 42 ms (1.00 video frame)

Interleave, preload duration : 500 ms

Writing library : LAME3.98.2

Comments

0 Comments

Sign in | Create a new account


Files

Torrent NameSize
The Avengers 2012 480p BRRip x264 300MB EvolutiOn Silver RG/MPP-ETRG.nfo2875
The Avengers 2012 480p BRRip x264 300MB EvolutiOn Silver RG/The Avengers 2012 480p BRRip x264 300MB EvolutiOn Silver RG.Trialer54815542
The Avengers 2012 480p BRRip x264 300MB EvolutiOn Silver RG/The Avengers 2012 480p BRRip x264 300MB EvolutiOn Silver RG.avi877424518
The Avengers 2012 480p BRRip x264 300MB EvolutiOn Silver RG/The Avengers.jpg320846
The Avengers 2012 480p BRRip x264 300MB EvolutiOn Silver RG/Torrent downloaded from Demonoid.me.txt46
The Avengers 2012 480p BRRip x264 300MB EvolutiOn Silver RG/Torrent downloaded from Extratorrent.com.txt40
The Avengers 2012 480p BRRip x264 300MB EvolutiOn Silver RG/Torrent downloaded from Rarbg.com.txt33
The Avengers 2012 480p BRRip x264 300MB EvolutiOn Silver RG/Torrent downloaded from h33t.com.txt32
The Avengers 2012 480p BRRip x264 300MB EvolutiOn Silver RG/sample814146

Trackers

Tracker
 4 months ago
http://exodus.desync.com:6969/announce 4 months ago
http://exodus.desync.com:6969/announceexodus.desync.com:6969/announce 4 months ago
http://fr33dom.h33t.com:3310/announce 4 months ago
http://red.tracker.prq.to/announce 4 months ago
http://red.tracker.prq.to:80/announce 4 months ago
http://the.illusionist.tracker.prq.to:80/announce 4 months ago
http://tpb.tracker.prq.to/announce 4 months ago
http://tracker.ilibr.org:80/announce 4 months ago
http://tracker.publicbits.com:80/announce 4 months ago
http://tracker.publicbt.com//announce 4 months ago
http://tracker.publicbt.com/announce 4 months ago
http://tracker.zond.org/announce 4 months ago
http://tv.tracker.prq.to:80/announce.php 4 months ago
http://vip.tracker.prq.to:80/announce 4 months ago
http://vtv.tv.tracker.prq.to/announce.php 4 months ago
http://www.h33t.com:3310/announce 4 months ago

Share

Bookmark

Warning! Use a VPN When Downloading Torrents!
Your IP Address is . Location is
Your Internet Provider is tracking your torrent activity! Hide your IP ADDRESS with a VPN!
We strongly recommend using Trust.Zone VPN to anonymize your torrenting. It's FREE!
Get VPN Now for FREE!