Safe House 2012 HINDI MOVIE

Warning! Do not Download Torrents Without a VPN!
Your IP Address is .   Location is
Your Internet Provider and Government can track your torrent Activity! Hide your IP ADDRESS with a VPN!
We strongly recommend using SpyOFF VPN to anonymize your Torrenting.It's FREE!
START YOUR FREE TRIAL NOW!

To start this download, you need a free bitTorrent client like µTorrent.


Informations

Bookmark this torrent.

Seeds107
Peers4
Size865.3 MB
Age5 years
DateNovember 19th 2017 anonymous
Comments0
Categorymovies
Hasha12753908130c39faf560fca9aaf585107f76599
ReportedFake (0Password (0Bad quality (0Virus (0Offensive (0Spam (0Real Torrent (0
Bookmark

Description

Format : AVI
Format/Info : Audio Video Interleave
Format profile : OpenDML
File size : 865 MiB
Duration : 1h 49mn
Overall bit rate : 1 714 Kbps
Writing application : VirtualDubMod 1.5.10.2 (build 2542/release)
Writing library : VirtualDubMod build 2542/release
Original source form : MAX TORRENTZ

Video
ID : 0
Format : MPEG-4 Visual
Format profile : AdvancedSimple@L5
Format settings, BVOP : Yes
Format settings, QPel : No
Format settings, GMC : No warppoints
Format settings, Matrix : Default (H.263)
Codec ID : XVID
Codec ID/Hint : XviD
Duration : 1h 49mn
Bit rate : 1 325 Kbps
Width : 640 pixels
Height : 272 pixels
Display aspect ratio : 2.35:1
Frame rate : 23.976 fps
Resolution : 24 bits
Colorimetry : 4:2:0
Scan type : Progressive
Bits/(Pixel*Frame) : 0.318
Stream size : 865 MiB (77%)
Writing library : XviD 61

Audio
ID : 1
Format : AC-3
Format/Info : Audio Coding 3
Codec ID : 2000
Duration : 1h 49mn
Bit rate mode : Constant
Bit rate : 384 Kbps
Channel(s) : 6 channels
Channel positions : Front: L C R, Surround: L R, LFE
Sampling rate : 48.0 KHz
Stream size : 147 MiB (22%)
Alignment : Aligned on interleaves
Interleave, duration : 64 ms (1.54 video frames)
Interleave, preload duration : 192 ms


http://www.imdb.com/title/tt1599348/


Safe House (2012)


How To Get Your Maxspeed (uTorrent)

Torrent Client - Preferences - Bandwidth - Number of connections - Set aprox. 500 for each
Torrent Client - Preferences - BiTorrent - Protocol Encryption - Forced
Bandwidth Allocation - High (Set download/upload limit - Unlimited)
Stop Other Active Torrents - Start downloading and wait for connections.
Enjoy and Seed for at least 1:1 ratio. Don't forget to say thanks/leave reviews.
Before downloading you should check/google search sample "release name""sample".
Greets to all actual/future p2p/scene QUALITY groups and affiliate websites.
Don't trust IMDb robot or bad ratings,always watch some trailers first.
Ignore stupid comments/fake/mislabeled/no-DVDrips/CAM/TS/RAR uploads.
Please spread this release/torrent to your friends/forums/etc.
If you need translation subs visit some subtitles sites.
Report if you see online streaming or other spam links.
Recommended movie player VLC PLAYER.

Comments

0 Comments

Sign in | Create a new account


Files

Torrent NameSize
Safe House 2012 HINDI MOVIE/Image.png56910
Safe House 2012 HINDI MOVIE/Release.nfo3048
Safe House 2012 HINDI MOVIE/Safe House 2012 HINDI MOVIE.avi897780944
Safe House 2012 HINDI MOVIE/Sample.avi9516044
Safe House 2012 HINDI MOVIE/Torrent Downloaded From ExtraTorrent.com.txt353

Trackers

Tracker
 4 months ago
http://10.rarbg.com/announce 4 months ago
http://bigtorrent.org:2710/announce 4 months ago
http://inferno.demonoid.com:3414/announce 4 months ago
http://pow7.com/announce 4 months ago
http://tracker.publicbt.com/announce 4 months ago
http://tracker.publicbt.com:80/announce 4 months ago
http://tracker.torrentbay.to:6969/announce 4 months ago
http://tracker.yify-torrents.com/announce 4 months ago
udp://tracker.openbittorrent.com:80/announce 4 months ago

Share

Bookmark


SpyOff Start Free Trial