Red Tails 2012 HINDI MOVIE

Warning! Do not Download Torrents Without a VPN!

Your Internet Provider and Government can track your torrent Activity! Hide your IP ADDRESS with a VPN!

We strongly recommend using SpyOFF VPN to anonymize your Torrenting. It's FREE!

START YOUR FREE TRIAL NOW!

To start this download, you need a free bitTorrent client like µTorrent.


Informations

Bookmark this torrent.

Seeds2
Peers29
Size885.6 MB
Age6 years
DateJanuary 20th 2018 anonymous
Comments0
Categorymovies
Hash76f5dd34ea515e49ec3e38510cd83a3308e0a16c
ReportedFake (0Password (0Bad quality (0Virus (0Offensive (0Spam (0Real Torrent (0
Bookmark

Description

Format : AVI
Format/Info : Audio Video Interleave
Format profile : OpenDML
Duration : 110 minutes
Overall bit rate : 1 206 Kbps
Writing application : VirtualDubMod 1.5.10.2 (build 2542/release)
Writing library : VirtualDubMod build 2542/release

Video
ID : 0
Format : MPEG-4 Visual
Format profile : AdvancedSimple@L5
Format settings, BVOP : Yes
Format settings, QPel : No
Format settings, GMC : No warppoints
Format settings, Matrix : Default (H.263)
Muxing mode : Packed bitstream
Codec ID : XVID
Codec ID/Hint : XviD
Duration : 110 minutes
Bit rate : 1 010 Kbps
Width : 640 pixels
Height : 272 pixels
Display aspect ratio : 2.35:1
Frame rate : 23.976 fps
Resolution : 24 bits
Colorimetry : 4:2:0
Scan type : Progressive
Bits/(Pixel*Frame) : 0.242
Stream size : 962 MiB (84%)
Writing library : XviD 57

Audio
ID : 1
Format : MPEG Audio
Format version : Version 1
Format profile : Layer 3
Codec ID : 55
Codec ID/Hint : MP3
Duration : 110 minutes
Bit rate mode : Constant
Bit rate : 192 Kbps
Channel(s) : 2 channels
Sampling rate : 48.0 KHz
Resolution : 16 bits
Stream size : 183 MiB (16%)
Alignment : Aligned on interleaves
Interleave, duration : 712 ms (17.08 video frames)
Interleave, preload duration : 216 ms
Writing library : LAME3.98.2

Red Tails (2012)


Source: DVD (perfect a/v/sync quality+filtered audio with additional 400% volume , sample is

included)


http://www.imdb.com/title/tt0485985/


Torrent Client - Preferences - Bandwidth - Number of connections - Set aprox. 500 for each
Torrent Client - Preferences - BiTorrent - Protocol Encryption - Forced
Bandwidth Allocation - High (Set download/upload limit - Unlimited)
Stop Other Active Torrents - Start downloading and wait for connections.
Enjoy and Seed for at least 1:1 ratio. Don't forget to say thanks/leave reviews.
Before downloading you should check/google search sample "release name""sample".
Greets to all actual/future p2p/scene QUALITY groups and affiliate websites.
Don't trust IMDb robot or bad ratings,always watch some trailers first.
Please spread this release/torrent to your friends/forums/etc.
If you need translation subs visit some subtitles sites.
Report if you see online streaming or other spam links.
Recommended movie player VLC PLAYER.

Comments

0 Comments

Sign in | Create a new account


Files

Torrent NameSize
Red Tails 2012 HINDI MOVIE/Red Tails 2012 HINDI MOVIE.avi926790593
Red Tails 2012 HINDI MOVIE/Release.nfo3048
Red Tails 2012 HINDI MOVIE/Sample.avi1667812
Red Tails 2012 HINDI MOVIE/Subs[ENG].srt136693
Red Tails 2012 HINDI MOVIE/Torrent downloaded from Demonoid.me.txt46

Trackers

Tracker
 4 months ago
http://10.rarbg.com/announce 4 months ago
http://pow7.com/announce 4 months ago
http://tracker.publicbt.com/announce 4 months ago
http://tracker.publicbt.com:80/announce 4 months ago
http://tracker.torrent.to:2710/announce 4 months ago
http://tv.tracker.prq.to/announce 4 months ago

Share

Bookmark


Start Free Trial