Jeune et jolie.2013.DVDrip.HD

Recommended FREE Download, Click Here

To start this download, you need a free bitTorrent client like µTorrent.


Informations

Bookmark this torrent.

Seeds95
Peers28
Size834.0 MB
Age4 years
DateOctober 16th 2017 anonymous
Comments0
Categorymovies
Hashbc6634739fb261235f8426ca3ce2455650e60bef
ReportedFake (0Password (0Bad quality (0Virus (0Offensive (0Spam (0Real Torrent (0
Bookmark

Description

Format : AVI
Format/Info : Audio Video Interleave
Format profile : OpenDML
Overall bit rate : 1 800 Kbps
Writing application : VirtualDubMod 1.5.10.2 (build 2542/release)
Writing library : VirtualDubMod build 2542/release

Video

Format : MPEG-4 Visual
Format settings, BVOP : Yes
Format settings, QPel : No
Format settings, Matrix : Default (MPEG)
Codec ID : x264
Codec ID/Hint : x264
Bit rate : 1 411 Kbps
Width : 1280 pixels
Height : 720 pixels
Display aspect ratio : 16:9
Frame rate : 29.97 fps
Resolution : 24 bits
Colorimetry : 4:2:0
Scan type : Progressive
Bits/(Pixel*Frame) : 0.338
Stream size : 1.03 GiB (78%)

Audio

Format : AC-3
Format/Info : Audio Coding 3
Codec ID : 2000
Bit rate mode : Constant
Bit rate : 384 Kbps
Channel(s) : 6 channels
Channel positions : Front: L C R, Surround: L R, LFE
Sampling rate : 48.0 KHz
Stream size : 287 MiB (21%)
Alignment : Aligned on interleaves
Interleave, duration : 64 ms (1.53 video frames)
Interleave, preload duration : 192 ms

Comments

0 Comments

Sign in | Create a new account


Files

Torrent NameSize

Trackers

Tracker

Share

Bookmark