Les Mondes De Ralph (2012) French Dvdrip Xvid - 3psilon.torrent

Recommended FREE Download, Click Here
Download This Torrent
or use the Magnet link. To start this download, you need a free bitTorrent client like µTorrent

Informations

Bookmark this torrent
Seeds130
Peers9
Size703.37 MB
Age2 years ago
DateSaturday 19 January 2013
Comments0
CategoryMovies > Animation
Hash008881f4a0a2e2daa147e27685480c2f7d231ac7
Reported Fake (0) Password (0) Bad quality (0) Virus (0) Offensive (0) Spam (0) Real Torrent (0)
Bookmark

Description

Les Mondes de Ralph (2012) FRENCH DVDRip XviD - 3PsiLoN

STATS:

Video
ID : 0
Format : MPEG-4 Visual
Format profile : Advanced Simple@L5
Format settings, BVOP : 2
Format settings, QPel : No
Format settings, GMC : No warppoints
Format settings, Matrix : Default (MPEG)
Muxing mode : Packed bitstream
Codec ID : XVID
Codec ID/Hint : XviD
Duration : 1h 41mn
Bit rate : 986 Kbps
Width : 720 pixels
Height : 320 pixels
Display aspect ratio : 2.25:1
Frame rate : 29.970 fps
Color space : YUV
Chroma subsampling : 4:2:0
Bit depth : 8 bits
Scan type : Progressive
Compression mode : Lossy
Bits/(Pixel*Frame) : 0.243
Stream size : 700 MiB (92%)
Writing library : XviD 64

Audio

Format : MPEG Audio
Format version : Version 1
Format profile : Layer 3
Mode : Joint stereo
Mode extension : MS Stereo
Codec ID : 55
Codec ID/Hint : MP3
Duration : 1h 41mn
Bit rate mode : Constant
Bit rate : 128 Kbps
Channel(s) : 2 channels
Sampling rate : 48.0 KHz
Compression mode : Lossy
Stream size : 51 MiB (7%)
Alignment : Split accross interleaves
Interleave, duration : 33 ms (1.00 video frame)
Interleave, preload duration : 500 ms
-

Comments

0 Comments


Sign in | Create a new account

Files

Torrent nameSize
image cover.jpg99.44 KB
nfo Les Mondes de Ralph (2012) FRENCH DVDRip XviD - 3PsiLoN.nfo1.92 KB
rar Les Mondes de Ralph (2012) FRENCH DVDRip XviD - 3PsiLoN/Les Mondes de Ralph (2012) FRENCH DVDRip XviD - 3PsiLoN.rar701.92 MB
image screenshot1.jpg65.37 KB
image screenshot2.jpg623.28 KB
image screenshot3.jpg694.67 KB

Share this torrent

Related Torrents

Yesterday | comments | verified Torrent nameAgeSizeSeedsPeersHealth
Add to FacebookLes Mondes de Ralph (2012) FRENCH DVDRip XviD - 3PsiLoN2 years700.9 MB130 36 Health
Add to FacebookLes Mondes de Ralph (2012) FRENCH DVDRip XviD - 3PsiLoN2 years700.9 MB124 11 Health
Add to FacebookLes Mondes de Ralph (2012) FRENCH DVDRip XviD - 3PsiLoN2 years700.9 MB57 16 Health
5279409