Battleship (2012) DVDRip~ Avi

Recommended FREE Download, Click Here

To start this download, you need a free bitTorrent client like µTorrent.


Informations

Bookmark this torrent.

Seeds6
Peers15
Size826.2 MB
Age5 years
DateOctober 18th 2017 rams
Comments0
Categorymovies
Hash9f77cb9f9ec5c705db09eb6b1e5edd0c91d55f56
ReportedFake (0Password (0Bad quality (0Virus (0Offensive (0Spam (0Real Torrent (0
Bookmark

Description

Battleship (2012) DVDRip~ Avi

Format :AVI

Format/Info :Audio Video Interleave

Format profile :OpenDML

File size :1.30 GiB

Duration :2h 12mn

Overall bit rate :1 398 Kbps

Writers :Erich Hoeber, Jon

release Date :12 April 2012

Copyright :SIGISMUNT

http://www.imdb.com/title/tt1440129/

Video

ID :0

Format :MPEG-4 Visual

Format profile :AdvancedSimple@L5

Format settings, BVOP :Yes

Format settings, QPel :No

Format settings, GMC :No warppoints

Format settings, Matrix :Default (MPEG)

Codec ID :XVID

Codec ID/Hint :XviD

Duration :2h 12mn

Bit rate :1 009 Kbps

Width :640 pixels

Height :272 pixels

Display aspect ratio :2.35:1

Frame rate :23.976 fps

Resolution :24 bits

Colorimetry :4:2:0

Scan type :Progressive

Bits/(Pixel*Frame) :0.242

Stream size :959 MiB (72%)

Writing library :XviD 64

Audio

ID :1

Format :AC-3

Format/Info :Audio Coding 3

Codec ID :2000

Duration :2h 12mn

Bit rate mode :Constant

Bit rate :384 Kbps

Channel(s) :6 channels

Channel positions :Front: L C R, Surround: L R, LFE

Sampling rate :48.0 KHz

Stream size :365 MiB (27%)

Alignment :Aligned on interleaves

Interleave, duration :64 ms (1.53 video frames)

Interleave, preload duration :192 ms

Source :DVD (perfect a/v/sync quality,sample included,hardcoded english

subs for few original foreign parts)

A fleet of ships is forced to do battle with an armada of unknown origins in

order to discover and thwart their destructive goals.

Channel positions : Front: L C R, Surround: L R, LFE
Sampling rate : 48.0 KHz
Stream size : 365 MiB (27%)
Alignment : Aligned on interleaves
Interleave, duration : 64 ms (1.53 video frames)
Interleave, preload duration : 192 ms

Source: DVD (perfect a/v/sync quality,sample included,hardcoded english

Comments

0 Comments

Sign in | Create a new account


Files

Torrent NameSize
Battleship (2012) DVDRip~ Avi/Battleship (2012) DVDRip.avi851293047
Battleship (2012) DVDRip~ Avi/Battleship (2012) DVDRip.info9945088
Battleship (2012) DVDRip~ Avi/Sample.Avi2994254
Battleship (2012) DVDRip~ Avi/Torrent downloaded from Rarbg.com.txt22
Battleship (2012) DVDRip~ Avi/Torrent downloaded from www.KAT.ph.txt41
Battleship (2012) DVDRip~ Avi/battleship1.jpg252888
Battleship (2012) DVDRip~ Avi/screencaps.jpeg1880526

Trackers

Tracker
 4 months ago
http://exodus.desync.com:6969/announce 4 months ago
http://fr33dom.h33t.com:3310/announce 4 months ago
http://tracker.prq.to/announce 4 months ago
http://www.deviloid.net:55000/announce 4 months ago
udp://tracker.1337x.org:80/announce 4 months ago
udp://tracker.ccc.de:80 4 months ago
udp://tracker.openbittorrent.com:80 4 months ago
udp://tracker.openbittorrent.com:80/announce 4 months ago
udp://tracker.publicbt.com:80 4 months ago

Share

Bookmark