Grimm S06e11 Web-dl X264-heff.torrent

Recommended FREE Download, Click Here

To start this download, you need a free bitTorrent client like µTorrent

Informations

Bookmark this torrent
Seeds64
Peers28
Size586.7 MB
Age3 days ago by pheonix83 > verified Verified
DateMonday 20 March 2017
Comments0
CategoryTV Shows > > verified Verified
Hashdef0b14441c7b8c512481da970859ef08752241f
Reported Fake (0) Password (0) Bad quality (0) Virus (0) Offensive (0) Spam (0) Real Torrent (0)
Bookmark

Description

Donate Us: bitcoin:17HBPWiAcvh9GFcZPg1ebvBXbnJDE3oxut

General
Complete name : Grimm.S06E11.WEB-DL.x264-HEFF.mp4
Format : MPEG-4
Format profile : Base Media
Codec ID : isom (isom/iso2/avc1/mp41)
File size : 587 MiB
Duration : 42 min 58 s
Overall bit rate : 1 908 kb/s

Video
ID : 1
Format : AVC
Format/Info : Advanced Video Codec
Format profile : Main@L4.1
Format settings, CABAC : Yes
Format settings, ReFrames : 4 frames
Codec ID : avc1
Codec ID/Info : Advanced Video Coding
Duration : 42 min 58 s
Bit rate : 1 800 kb/s
Width : 720 pixels
Height : 406 pixels
Display aspect ratio : 16:9
Frame rate mode : Constant
Frame rate : 23.976 (23976/1000) FPS
Chroma subsampling : 4:2:0
Bit depth : 8 bits
Scan type : Progressive
Bits/(Pixel*Frame) : 0.257
Stream size : 545 MiB (93%)
Writing library : x264 core 148

Audio
ID : 2
Format : AAC
Format/Info : Advanced Audio Codec
Format profile : LC
Codec ID : 40
Duration : 42 min 58 s
Duration_LastFrame : -11 ms
Bit rate mode : Constant
Bit rate : 129 kb/s
Channel(s) : 2 channels
Channel positions : Front: L R
Sampling rate : 48.0 kHz
Frame rate : 46.875 FPS (1024 spf)
Compression mode : Lossy
Stream size : 39.8 MiB (7%)

Comments

0 Comments


Sign in | Create a new account
  

Files

Torrent nameSize
video Grimm.S06E11.WEB-DL.x264-HEFF.mp4586.62 MB
image hefftorrents.com.jpg83.34 KB

Trackers

TrackerSeedsPeers
udp://ipv4.tracker.harry.lu:80/announce 3 days ago00
udp://tracker.zer0day.to:1337/announce 3 days ago00
udp://explodie.org:6969/announce 3 days ago00
udp://tracker.leechers-paradise.org:6969/announce 3 days ago00
udp://shadowshq.yi.org:6969/announce 3 days ago00
udp://p4p.arenabg.ch:1337/announce 3 days ago00
udp://tracker.pirateparty.gr:6969/announce 3 days ago00
udp://9.rarbg.to:2710/announce 3 days ago00
udp://tracker.opentrackr.org:1337/announce 3 days ago00
udp://p4p.arenabg.com:1337/announce 3 days ago00
udp://tracker.coppersurfer.tk:6969/announce 3 days ago00
udp://tracker.ilibr.org:80/announce 3 days ago00
udp://tracker.ilibr.org:6969/announce 3 days ago00
udp://9.rarbg.me:2710/announce 3 days ago00

Share this torrent