Dead Man On Campus 1998 HDTV 720p x264-HEFF

Recommended FREE Download, Click Here

To start this download, you need a free bitTorrent client like µTorrent.


Informations

Bookmark this torrent.

Seeds68
Peers19
Size1.9 GB
Age8 months
DateOctober 19th 2017 pheonix83
Comments0
Categorymovies
Hash70de7af98ca3d0f4ecb8068d100e63139feb9144
ReportedFake (0Password (0Bad quality (0Virus (0Offensive (0Spam (0Real Torrent (0
Bookmark

Description

General
Complete name : Dead.Man.On.Campus.1998.HDTV.720p. x264-HEFF/Dead.Man.On.Campus.1998.HDTV.720p. x264-HEFF.mp4
Format : MPEG-4
Format profile : Base Media / Version 2
Codec ID : mp42 (isom/iso2/avc1/mp41)
File size : 1.87 GiB
Duration : 1h 34mn
Overall bit rate : 2 838 Kbps

Video
ID : 1
Format : AVC
Format/Info : Advanced Video Codec
Format profile : High@L4.1
Format settings, CABAC : Yes
Format settings, ReFrames : 4 frames
Codec ID : avc1
Codec ID/Info : Advanced Video Coding
Duration : 1h 34mn
Bit rate : 2 700 Kbps
Width : 1 280 pixels
Height : 720 pixels
Display aspect ratio : 16:9
Frame rate mode : Variable
Frame rate : 23.976 (24000/1001) fps
Chroma subsampling : 4:2:0
Bit depth : 8 bits
Scan type : Progressive
Bits/(Pixel*Frame) : 0.122
Stream size : 1.78 GiB (95%)
Writing library : x264 core 148 r2643 5c65704

Audio
ID : 2
Format : AAC
Format/Info : Advanced Audio Codec
Format profile : LC
Codec ID : 40
Duration : 1h 34mn
Bit rate mode : Constant
Bit rate : 132 Kbps
Channel(s) : 2 channels
Channel positions : Front: L R
Sampling rate : 48.0 KHz
Frame rate : 46.875 fps (1024 spf)
Compression mode : Lossy
Stream size : 89.0 MiB (5%)
Title : Stereo / Stereo

Comments

0 Comments

Sign in | Create a new account


Files

Torrent NameSize
Dead.Man.On.Campus.1998.HDTV.720p. x264-HEFF/Dead.Man.On.Campus.1998.HDTV.720p. x264-HEFF.mp42006319524
Dead.Man.On.Campus.1998.HDTV.720p. x264-HEFF/hefftorrents.com.jpg85338

Trackers

Tracker
udp://explodie.org:6969/announce 4 months ago
udp://tracker.coppersurfer.tk:6969/announce 4 months ago
udp://tracker.leechers-paradise.org:6969/announce 4 months ago
udp://tracker.opentrackr.org:1337/announce 4 months ago
udp://zer0day.ch:1337/announce 4 months ago

Share

Bookmark