Paramparca S01e68 Dvb-t By Ari Mp4.torrent

Recommended FREE Download, Click Here

To start this download, you need a free bitTorrent client like µTorrent

Informations

Bookmark this torrent
Seeds147
Peers3
Size361.65 MB
Age4 months ago by Aris2015
DateThursday 21 January 2016
Comments0
CategoryOthers > Others
Hash49f8eb5efecffbac69d523c81ed183ebaef7750b
Reported Fake (0) Password (0) Bad quality (0) Virus (0) Offensive (0) Spam (0) Real Torrent (0)
Bookmark

Description

Αυτό Το Αρχείο Που Κατεβάσατε Τώρα, Σίγουρα Θα θέλουν Να Το Κατεβάσουν Κι Αλλοι Χρήστες! Για Να Γίνει Αυτό...Δεν Πρέπει Να Σταματάμε Αυτά Που Κατεβάσαμε Μέχρι Να Δώσουμε Πίσω Αυτά Που Πήραμε,Η Και Παραπάνω! Μην Ξεχνάμε Οτι Για Να Μπορούμε Να Κατεβάζουμε Με Καλές Ταχύτητες Πρέπει Ολοι Να Βοηθάμε Στον Διαμοιρασμό Τον Αρχείων, Αλλά Και Για Να Μπορεί Ενας uploader Να Ανεβάζει Και Νέα Αρχεία Θέλει την Βοήθεια
Ολων Μας Στον Διαμοιρασμό Τους. Ευχαριστούμε για την κατανόηση σας!

General
Complete name : Paramparca S01E68 DVB-T By Ari.mp4
Format : MPEG-4
Format profile : Base Media
Codec ID : isom (isom/iso2/avc1/mp41)
File size : 362 MiB
Duration : 44mn 36s
Overall bit rate mode : Variable
Overall bit rate : 1 134 Kbps
Movie name : Paramparca S01E68 DVB-T.X264
Performer : ARI
Genre : DRAMA
Encoded date : UTC 2016-01-20 23:59:12
Tagged date : UTC 2016-01-20 23:59:12
Writing application : Lavf57.20.100

Video
ID : 1
Format : AVC
Format/Info : Advanced Video Codec
Format profile : High@L3.1
Format settings, CABAC : Yes
Format settings, ReFrames : 16 frames
Codec ID : avc1
Codec ID/Info : Advanced Video Coding
Duration : 44mn 36s
Bit rate mode : Variable
Bit rate : 1 000 Kbps
Maximum bit rate : 17.5 Mbps
Width : 720 pixels
Height : 576 pixels
Display aspect ratio : 16:9
Frame rate mode : Constant
Frame rate : 25.000 fps
Standard : PAL
Color space : YUV
Chroma subsampling : 4:2:0
Bit depth : 8 bits
Scan type : Progressive
Bits/(Pixel*Frame) : 0.096
Stream size : 319 MiB (88%)
Writing library : x264 core 148 r2638


Audio
ID : 2
Format : AAC
Format/Info : Advanced Audio Codec
Format profile : LC
Codec ID : 40
Duration : 44mn 36s
Duration_LastFrame : -3ms
Bit rate mode : Constant
Bit rate : 128 Kbps
Channel(s) : 2 channels
Channel positions : Front: L R
Sampling rate : 48.0 KHz
Frame rate : 46.875 fps (1024 spf)
Compression mode : Lossy
Stream size : 40.8 MiB (11%)
Language : Turkish
Default : Yes

SCREENSHOT:
http://imgur.com/qGRqGRf

Comments

0 Comments


Sign in | Create a new account
  

Files

Torrent nameSize
video Paramparca S01E68 DVB-T By Ari.mp4361.65 MB

Trackers

TrackerSeedsPeers
http://retracker.krs-ix.ru:80/announce 4 months ago00
http://explodie.org:6969/announce 4 months ago00
udp://tracker.openbittorrent.com:80/announce 4 months ago00
udp://torrent.gresille.org/announce 4 months ago00
udp://glotorrents.pw:6969/announce 4 months ago00
udp://eddie4.nl:6969/announce 4 months ago00
udp://tracker.pomf.se:80/announce 4 months ago00
http://mgtracker.org:2710/announce 4 months ago00
udp://tracker.coppersurfer.tk:6969/announce 4 months ago00
udp://tracker.leechers-paradise.org:6969/announce 4 months ago00
udp://open.demonii.com:1337/announce 4 months ago00

Share this torrent